Скачать через торрент Пчёлка Майя и Кубок мёда Maya the Bee: The Honey Games Фильм бесплатно в хорошем качестве torrent

Скачивайте на UnionPeer.org фильмы через торрент без регистрации. Новинки кино в хорошем качестве через торрент. На UnionPeer.org можно скачать через торрент фильмы 2014 и 2015 годов. Самые новые фильмы.

Скачать торрент Пчёлка Майя и Кубок мёда Maya the Bee: The Honey Games бесплатно через .torrent фильм мультфильм сериал

Статистика раздачи
Размер:  5.37 GB   |    Зарегистрирован:  1 месяц 1 день   |    .torrent скачан:  26 раз   |   
Раздают:  1  
   
загрузка...
 
Автор Сообщение

Galfimbul

avatar Galfimbul



Пчёлка Майя и Кубок мёда
Die Biene Maja - Die Honigspiele
Maya the Bee: The Honey Games

Год выпуска: 2018
Страна: Германия, Австралия (Studio 100 Media, Studio B Animation, Create NSW, Flying Bark Productions)
Жанр: мультфильм
, комедия, приключения, семейный
Продолжительность: 01:25:09

Перевод: Профессиональный дублированный - iTunes

Режиссеры: Ноэль Клири, Серджо Делфино, Алекс Стадерманн / Noel Cleary, Sergio Delfino, Alexs Stadermann
Роли озвучивали (по-английски) / дублировали: Коко Джек Гиллис / Элиза Мартиросова (Майя), Бенсон Джек Энтони / Ирина Киреева (Willi), Ричард Роксбург / Данил Щебланов (Flip), Джастин Кларк / Ольга Кузнецова (королева), Марни МакКуин (императрица), Линда Нго / Лина Иванова (Violet), Кэм Ральф / Радик Мухаметзянов (Bedford), Джордан Хэа (Spinder), Сэм Хафт (Drago), Питер МакАллум (Mantis), Тесс Мейер / Анастасия Жаркова (Sandra), Джейн У’Брайен / Мария Овчинникова (Thekla), Ставрула Адамейтис / Татьяна Абрамова (Chelsea), Дэвид Коллинз / Михаил Тихонов (Arnie), Шэйн Дандас / Даниил Эльдаров (Barney), Джимми Джеймс Итон / Иван Калинин (Craig), Руперт Дегас (Beegood)
Описание: Пчёлка Майя с нетерпением ждёт начала спортивных соревнований между ульями за Кубок мёда. Однако Императрица не только не допускает её улей до игр, но и требует, чтобы они отдали половину своего урожая мёда для питания других спортсменов. Такое положение дел не устраивает пчёлку, и она летит к Императрице, чтобы добиться включения её команды в список участников.
Премьера: 1 февраля 2018 (17 мая 2018)


Качество: BDRip (by Ash61)
Контейнер: MKV
Формат 3D: Half OverUnder / Вертикальная анаморфная стереопара
Порядок ракурсов: левый ракурс первый
Видео: AVC / 1920х1080p / 23,976 fps / 8000 Kbps

Аудио:
#1 - Русский / AC3 / 48 KHz / 5.1 ch / 384 Kbps (Дубляж - iTunes)
#2 - Английский / AC3 / 48 KHz / 5.1 ch / 640 Kbps (Original - BD 3D)

Субтитры: Внешние (SRT UTF-8) English SDH
General
Unique ID : 192374951198808015405649441643726385794 (0x90BA11625008D1DFA3E19B7B213C3282)
Complete name : D:MayaTheBee.TheHoneyGames(2018)3D-halfOU(Ash61)iTunesMayaTheBee.TheHoneyGames(2018)3D-halfOU(Ash61)iTunes.mkv
Format : Matroska
Format version : Version 2
File size : 5.37 GiB
Duration : 1h 25mn
Overall bit rate : 9 025 Kbps
Movie name : Пчёлка Майя и Кубок мёда / Die Biene Maja - Die Honigspiele / Maya the Bee: The Honey Games (2018) in 3D
Encoded date : UTC 2018-11-06 23:31:07
Writing application : mkvmerge v5.8.0 ('No Sleep / Pillow') built on Sep 2 2012 15:37:04
Writing library : libebml v1.2.3 + libmatroska v1.3.0

Video
ID : 1
Format : AVC
Format/Info : Advanced Video Codec
Format profile : High@L4.1
Format settings, CABAC : Yes
Format settings, ReFrames : 4 frames
Codec ID : V_MPEG4/ISO/AVC
Duration : 1h 25mn
Bit rate : 8 000 Kbps
Width : 1 920 pixels
Height : 1 080 pixels
Display aspect ratio : 16:9
Frame rate mode : Constant
Frame rate : 23.976 (24000/1001) fps
Color space : YUV
Chroma subsampling : 4:2:0
Bit depth : 8 bits
Scan type : Progressive
Bits/(Pixel*Frame) : 0.161
Stream size : 4.65 GiB (87%)
Title : BDRip by Ash61
Writing library : x264 core 146 r2538 121396c
Encoding settings : cabac=1 / ref=4 / deblock=1:-3:-3 / analyse=0x3:0x113 / me=umh / subme=10 / psy=1 / psy_rd=1.00:0.00 / mixed_ref=1 / me_range=32 / chroma_me=1 / trellis=2 / 8x8dct=1 / cqm=0 / deadzone=21,11 / fast_pskip=0 / chroma_qp_offset=-2 / threads=12 / lookahead_threads=3 / sliced_threads=0 / nr=0 / decimate=0 / interlaced=0 / bluray_compat=0 / constrained_intra=0 / bframes=12 / b_pyramid=2 / b_adapt=2 / b_bias=0 / direct=3 / weightb=1 / open_gop=0 / weightp=2 / keyint=250 / keyint_min=23 / scenecut=40 / intra_refresh=0 / rc_lookahead=60 / rc=2pass / mbtree=0 / bitrate=8000 / ratetol=1.0 / qcomp=0.70 / qpmin=0 / qpmax=69 / qpstep=4 / cplxblur=20.0 / qblur=0.5 / vbv_maxrate=40000 / vbv_bufsize=30000 / nal_hrd=none / filler=0 / frame-packing=4 / ip_ratio=1.40 / pb_ratio=1.30 / aq=1:0.70
Language : German
Default : Yes
Forced : No

Audio #1
ID : 2
Format : AC-3
Format/Info : Audio Coding 3
Mode extension : CM (complete main)
Format settings, Endianness : Big
Codec ID : A_AC3
Duration : 1h 25mn
Bit rate mode : Constant
Bit rate : 384 Kbps
Channel(s) : 6 channels
Channel positions : Front: L C R, Side: L R, LFE
Sampling rate : 48.0 KHz
Frame rate : 31.250 fps (1536 spf)
Compression mode : Lossy
Stream size : 234 MiB (4%)
Title : Дубляж (iTunes)
Language : Russian
Default : Yes
Forced : No

Audio #2
ID : 3
Format : AC-3
Format/Info : Audio Coding 3
Mode extension : CM (complete main)
Format settings, Endianness : Big
Codec ID : A_AC3
Duration : 1h 25mn
Bit rate mode : Constant
Bit rate : 640 Kbps
Channel(s) : 6 channels
Channel positions : Front: L C R, Side: L R, LFE
Sampling rate : 48.0 KHz
Frame rate : 31.250 fps (1536 spf)
Compression mode : Lossy
Stream size : 390 MiB (7%)
Language : English
Default : No
Forced : No
Каталог фильмов, выходивших в 3Д, со ссылками (вер. 19.10.2018)
О форматах и методах просмотра 3D

Источник http://BlaTor.org

Трекер:  [ 10-Ноя-2018 05:20 ]

  

Скачать .torrent

Размер .torrent файла 27 KB


Размер: 5.37 GB
Хэш (hash) релиза: a6aa610c100d817e76f37288f578d7f3c4378d8f
Подписка на обновления:

Торренты, похожие на Пчёлка Майя и Кубок мёда Maya the Bee: The Honey Games скачать торрент

Форум Название Автор Размер S L Добавлен
Мультфильмы 2016-2018 (Новинки мультфильмов) ·%· Пчёлка Майя и Кубок мёда / Maya the Bee: The Honey Games (2018) BDRip от ExKinoRay | iTunes Galfimbul 15270167581.42 GB 0 0 1535636588

16:43

30-Авг-18

Мультфильмы 2016-2018 (Новинки мультфильмов) ·%· Пчёлка Майя и Кубок мёда / Maya the Bee: The Honey Games (2018) BDRip от MegaPeer | iTunes Galfimbul 15270789121.42 GB 0 0 1535442644

10:50

28-Авг-18

Мультфильмы 2016-2018 (Новинки мультфильмов) ·%· Пчёлка Майя и Кубок мёда / Maya the Bee: The Honey Games (2018) BDRip | iTunes Galfimbul 15619886281.45 GB 0 0 1535403717

00:01

28-Авг-18

Мультфильмы 2016-2018 (Новинки мультфильмов) ·%· Пчёлка Майя и Кубок мёда / Maya the Bee: The Honey Games (2018) BDRip-AVC | iTunes Galfimbul 19695413951.83 GB 0 0 1535403670

00:01

28-Авг-18

Мультфильмы 2016-2018 (Новинки мультфильмов) ·%· Пчёлка Майя и Кубок мёда / Maya the Bee: The Honey Games (2018) BDRip 720p | iTunes Galfimbul 35152931523.27 GB 0 0 1535403650

00:00

28-Авг-18

Мультфильмы 2016-2018 (Новинки мультфильмов) ·%· Пчёлка Майя и Кубок мёда / Maya the Bee: The Honey Games (2018) BDRip 1080p | iTunes Galfimbul 63781037105.94 GB 0 0 1535403631

00:00

28-Авг-18

Еще никто не оставлял запись к записи скачать торрент Пчёлка Майя и Кубок мёда Maya the Bee: The Honey Games . Будь первым!

!Обратная связь